作者:  Karen
昵称:凯伦
经验
1.05万
金币
29.38万
积分
1204
 发表于 2022-09-06 00:20  查看 3275 | 倒序浏览 |  下载地址
地球脉动 第二季
◎译  名 地球脉动 第二季/行星地球 第二季/我们的地球 第二季/地球无限 第二季
◎片  名 Planet Earth II
◎年  代 2016
◎国  家 英国
◎类  别 纪录片
◎语  言 英语/国语
◎上映日期 2016-11-06(英国)
◎IMDb评分  9.7/10 (23,330 votes) Top Rated TV #1 
◎集  数 6
◎片  长 58分钟
◎导  演 艾雷斯泰·法瑟吉尔 Alastair Fothergill
◎主  演 戴维·阿滕伯勒 David Attenborough

◎简  介
  据外媒The Atlantic 报道,《地球脉动2》将在今年晚些时候正式播出,并继续由英国生物学家David Attenborough担任旁白。
  “在2006年播出时,首次全程采用高清摄像机拍摄的《地球脉动》是当时BBC摄制成本最高的一部纪录片。《地球脉动2》将运用同样的前瞻性思维,在过去三年中我们采用超高清4K摄影机拍摄,同时使用了无人机和远程控制拍摄技术。 《地球脉动2》播出后极有可能成为4k电视机的助推器。”

温馨提示:以下截图为缩略图,真实播放效果比这个好很多,使用4K HDR设备播放,效果惊艳,作为终极收藏,请勿错过!

地球脉动 第二季

行星地球 第二季

我们的地球 第二季

参数:
Video
ID                                : 1
Format                         : HEVC
Format/Info                  : High Efficiency Video Coding
Format profile               : Main 10@L5.1@High
Codec ID                      : V_MPEGH/ISO/HEVC
Duration                       : 53 min 4 s
Bit rate                         : 43.0 Mb/s
Width                           : 3 840 pixels
Height                          : 2 160 pixels
Display aspect ratio        : 16:9
Frame rate mode           : Constant
Frame rate                    : 23.976 (24000/1001) FPS
Color space                   : YUV
Chroma subsampling      : 4:2:0 (Type 2)
Bit depth                       : 10 bits
Bits/(Pixel*Frame)          : 0.216
Stream size                    : 16.0 GiB (92%)
Default                          : Yes
Forced                           : No
Color range                    : Limited
Color primaries               : BT.2020
Transfer characteristics   : PQ
Matrix coefficients           : BT.2020 non-constant

Audio #1
ID                                 : 2
Format                          : DTS
Format/Info                   : Digital Theater Systems
Codec ID                       : A_DTS
Duration                        : 53 min 3 s
Bit rate mode                 : Constant
Bit rate                          : 1 510 kb/s
Channel(s)                     : 6 channels
Channel positions            : Front: L C R, Side: L R, LFE
Sampling rate                 : 48.0 kHz
Frame rate                     : 93.750 FPS (512 SPF)
Bit depth                        : 24 bits
Compression mode          : Lossy
Stream size                     : 573 MiB (3%)
Language                       : Chinese
Default                           : Yes
Forced                            : Yes

Audio #2
ID                                  : 3
Format                           : DTS
Format/Info                    : Digital Theater Systems
Format profile                 : MA / Core
Codec ID                        : A_DTS
Duration                         : 53 min 4 s
Bit rate mode                  : Variable / Constant
Bit rate                           : 2 301 kb/s / 1 509 kb/s
Channel(s)                      : 6 channels
Channel positions            : Front: L C R, Side: L R, LFE
Sampling rate                 : 48.0 kHz
Frame rate                     : 93.750 FPS (512 SPF)
Bit depth                        : 16 bits
Compression mode          : Lossless / Lossy
Stream size                    : 873 MiB (5%)
Language                       : English
Default                           : No
Forced                            : No

温馨提示:
用电脑播放的请安装完美解码!
PotPlayer播放器内右键点视频-点像素着色-选择HDR SMPTE ST2084自动校正
本片为4K蓝光原盘压制,国英双语音轨,根据需要外挂字幕!如果想达到最佳观看效果就在HDR电视上播放。电视播放建议安装Mx player。
尊敬的游客,如果您要查看本帖隐藏内容请 登录论坛  如果您还没有账号,请 注册账号
沙发: rockcao
昵称:Rockcao
经验
20600
金币
6381
积分
3531
  发表于:2021-12-30 00:26
感谢楼主分享
 评论区:Posted @ 2021-12-30 00:26:18 Rockcao   全部评论(1)
 1# 
hua134 于 2022-06-15 10:33 评论说:  回复  举报
为什么不能回复了
板凳: wykk328
昵称:wykk328
经验
14981
金币
1193
积分
2318
  发表于:2021-12-30 01:46
这个厉害的,多谢分享!
地板: xiaozhi27
昵称:汉堡的逆袭
经验
2897
金币
1225
积分
319
  发表于:2021-12-30 04:34
感谢大佬分享!!
4楼 : x28466
昵称:00544
经验
1971
金币
414
积分
273
  发表于:2021-12-30 06:11
喜欢这个系列,谢谢分享
 评论区:Posted @ 2021-12-30 06:11:48 00544   全部评论(1)
 1# 
peter2022 于 2022-06-21 13:29 评论说:  回复  举报
[BBC:地球脉动 第二季(蓝光国英双语)][MKV/85GB][4K-HDR中字][2016高分必看纪录片][豆瓣9.8分]
5楼 : awmkgt
昵称:时速5万公里
经验
15962
金币
2476
积分
2481
  发表于:2021-12-30 06:18
心大结局泼墨
6楼 : lucewang
昵称:baymax365
经验
3234
金币
436
积分
379
  发表于:2021-12-30 06:49
非常感谢分享
7楼 : keyfc
昵称:夺命书生
经验
964
金币
42
积分
152
  发表于:2021-12-30 07:45
[BBC:地球脉动 第二季(蓝光国英双语)][MKV/85GB][4K-HDR中字][2016高分必看纪录片][豆瓣9.8分]
8楼 : onion
昵称:杨枝甘露
经验
2309
金币
19
积分
339
  发表于:2021-12-30 08:02
感谢楼主发布分享经典资源!
9楼 : moqijiang
昵称:moqijiang
经验
2028
金币
704
积分
299
  发表于:2021-12-30 08:10
好东西呀  谢谢分享~!!谢谢分享
10楼 : funnylove
昵称:知不道
经验
421
金币
146
积分
65
  发表于:2021-12-30 09:52
喜欢纪录片,特别是有中文的
11楼 : lxljie123
昵称:老玉米
经验
1132
金币
366
积分
170
  发表于:2021-12-30 09:59
谢谢共享,谢谢楼主
12楼 : xiezll
昵称:远望道
经验
5300
金币
180
积分
1145
  发表于:2021-12-30 11:30
感谢楼主分享,
13楼 : TaoTao112
昵称:taotao1123
经验
147
金币
45
积分
30
  发表于:2021-12-30 12:48
这个是好东西
14楼 : attorney1
昵称:茄茄
经验
4361
金币
1046
积分
679
  发表于:2021-12-30 13:54
感谢楼主分享!!!
15楼 : longker
昵称:xxxb
经验
1411
金币
137
积分
181
  发表于:2021-12-30 17:16
豆瓣9.7高分推荐]
16楼 : longker
昵称:xxxb
经验
1411
金币
137
积分
181
  发表于:2021-12-30 17:16
豆瓣9.7高分推荐]
17楼 : xiezll
昵称:远望道
经验
5300
金币
180
积分
1145
  发表于:2021-12-31 10:34
感谢楼主分享
18楼 : jimmy520
昵称:jimm520
经验
3255
金币
1097
积分
341
  发表于:2021-12-31 10:38
感谢楼主分享
19楼 : zhuimeng
昵称:红豆生南瓜
经验
101
金币
46
积分
22
  发表于:2021-12-31 13:54
这个系列不错啊,下载了电视看
20楼 : uni101
昵称:uni101
经验
136
金币
9
积分
27
  发表于:2021-12-31 15:03
谢楼主分享,超高清的体验地球脉动
快速回帖
  尊敬的游客,你当前还没登录站点,立即登录,快速回复此帖!