作者:  hobin
昵称:子墨
经验
8177
金币
12652
积分
1664
TA的心情:
慵懒
发表于:昨天 08:56
签到天数:299 天
签到等级:【Lv.7】
等级称号:常住居民
 发表于 2020-10-17 23:02  查看 13 | 倒序浏览 |  下载地址
无主之作
◎译  名 无主之作 / Never Look Away / Work Without Author
◎片  名 Werk ohne Autor
◎年  代 2018
◎产  地 德国 / 意大利
◎类  别 剧情
◎语  言 德语 / 俄语
◎上映日期 2018-09-04(威尼斯电影节) / 2018-10-03(德国)
◎IMDb评分 7.7/10 from 4104 users
◎IMDb链接 https://www.imdb.com/title/tt5311542
◎豆瓣评分 8.6/10 from 16779 users
◎豆瓣链接 https://movie.douban.com/subject/26701196/
◎片  长 189分钟
◎导  演 弗洛里安·亨克尔·冯·多纳斯马 Florian Henckel von Donnersmarck
◎编  剧 弗洛里安·亨克尔·冯·多纳斯马尔克 Florian Henckel von Donnersmarck
◎主  演 汤姆·希林 Tom Schilling
      塞巴斯蒂安·科赫 Sebastian Koch
      葆拉·贝尔 Paula Beer
      莎斯琪亚·罗森道尔 Saskia Rosendahl
      奥利弗·马苏奇 Oliver Masucci
      叶甫根尼·希迪金 Yevgeni Sidikhin
      马克·扎克 Mark Zak
      乌尔里克·C·扎勒 Ulrike C. Tscharre
      巴斯蒂安·特罗斯特 Bastian Trost
      汉斯-尤韦·鲍尔 Hans-Uwe Bauer
      汉诺·科夫勒 Hanno Koffler
      辛纳克·勋纳曼 Hinnerk Sch?nemann
      詹妮特·海因 Jeanette Hain
      乔切·舒托夫 J?rg Schüttauf
      约翰娜·加斯多夫 Johanna Gastdorf
      弗罗里安·巴西奥罗麦 Florian Bartholom?i
      本·贝克 Ben Becker


◎标  签 德国 | 剧情 | 艺术 | 传记 | 2018 | 历史 | 悬疑 | 艺术史

◎简  介

  该片由塞巴斯蒂安·科赫、汤姆·希林、葆拉·贝尔出演,源于真实事件,讲述艺术学生Kurt Barnert爱上了同学Ellie Seeband,Ellie的爸爸Carl Seeband却不喜欢他,但他们的命运仍被多年前一起可怕的罪行联系在了一起。事关Barnert的身世:他是从东德逃往西德……

◎获奖情况

  第91届奥斯卡金像奖(2019)
  最佳外语片(提名)
  最佳摄影(提名) 凯莱布·德夏奈尔

  第75届威尼斯电影节(2018)
  主竞赛单元 金狮奖 (提名) 弗洛里安·亨克尔·冯·多纳斯马尔克

  第76届金球奖(2019)
  电影类 最佳外语片(提名)

  第66届美国音效剪辑协会奖(2019)
  金卷轴奖 最佳外语片音效剪辑(提名)



Video
ID : 1
Format : AVC
Format/Info : Advanced Video Codec
Format profile : High@L4.1
Format settings : CABAC / 3 Ref Frames
Format settings, CABAC : Yes
Format settings, ReFrames : 3 frames
Codec ID : V_MPEG4/ISO/AVC
Duration : 3 h 9 min
Bit rate mode : Variable
Bit rate : 26.7 Mb/s
Maximum bit rate : 40.0 Mb/s
Width : 1 920 pixels
Height : 1 080 pixels
Display aspect ratio : 16:9
Frame rate mode : Constant
Frame rate : 23.976 (24000/1001) FPS
Color space : YUV
Chroma subsampling : 4:2:0
Bit depth : 8 bits
Scan type : Progressive
Bits/(Pixel*Frame) : 0.537
Stream size : 34.2 GiB (92%)
Title : Never.Look.Away.2018.GERMAN.1080p.BluRay.REMUX.AVC.DTS-HD.MA.5.1-FGT
Writing library : x264 core 148 r2694bm 3b70645
Encoding settings : cabac=1 / ref=4 / deblock=1:0:0 / analyse=0x3:0x133 / me=umh / subme=9 / psy=1 / psy_rd=1.00:0.00 / mixed_ref=1 / me_range=16 / chroma_me=1 / trellis=2 / 8x8dct=1 / cqm=0 / deadzone=21,11 / fast_pskip=1 / chroma_qp_offset=-2 / threads=30 / lookahead_threads=2 / sliced_threads=0 / slices=4 / nr=0 / decimate=1 / interlaced=0 / bluray_compat=1 / constrained_intra=0 / bframes=3 / b_pyramid=1 / b_adapt=2 / b_bias=0 / direct=3 / weightb=1 / open_gop=1 / weightp=1 / keyint=24 / keyint_min=1 / scenecut=40 / intra_refresh=0 / rc_lookahead=24 / rc=abr / mbtree=1 / bitrate=26700 / ratetol=1.0 / qcomp=0.60 / qpmin=0 / qpmax=69 / qpstep=4 / vbv_maxrate=40000 / vbv_bufsize=30000 / nal_hrd=vbr / filler=0 / ip_ratio=1.40 / aq=1:1.00
Language : English
Default : No
Forced : No
Color range : Limited
Color primaries : BT.709
Transfer characteristics : BT.709
Matrix coefficients : BT.709

Audio #1
ID : 2
Format : DTS XLL
Format/Info : Digital Theater Systems
Commercial name : DTS-HD Master Audio
Codec ID : A_DTS
Duration : 3 h 9 min
Bit rate mode : Variable
Bit rate : 1 887 kb/s
Channel(s) : 6 channels
Channel layout : C L R Ls Rs LFE
Sampling rate : 48.0 kHz
Frame rate : 93.750 FPS (512 SPF)
Bit depth : 16 bits
Compression mode : Lossless
Stream size : 2.49 GiB (7%)
Title : Never.Look.Away.2018.GERMAN.1080p.BluRay.REMUX.AVC.DTS-HD.MA.5.1-FGT
Language : German
Default : Yes
Forced : No

Audio #2
ID : 3
Format : AC-3
Format/Info : Audio Coding 3
Commercial name : Dolby Digital
Codec ID : A_AC3
Duration : 3 h 9 min
Bit rate mode : Constant
Bit rate : 448 kb/s
Channel(s) : 6 channels
Channel layout : L R C LFE Ls Rs
Sampling rate : 48.0 kHz
Frame rate : 31.250 FPS (1536 SPF)
Bit depth : 16 bits
Compression mode : Lossy
Stream size : 606 MiB (2%)
Title : Never.Look.Away.2018.GERMAN.1080p.BluRay.REMUX.AVC.DTS-HD.MA.5.1-FGT
Language : English
Service kind : Complete Main
Default : No
Forced : No

Text #1
ID : 4
Format : PGS
Muxing mode : zlib
Codec ID : S_HDMV/PGS
Codec ID/Info : Picture based subtitle format used on BDs/HD-DVDs
Duration : 2 h 59 min
Bit rate : 23.6 kb/s
Count of elements : 2699
Stream size : 30.3 MiB (0%)
Title : English-PGS
Language : English
Default : Yes
Forced : No

Text #2
ID : 5
Format : PGS
Muxing mode : zlib
Codec ID : S_HDMV/PGS
Codec ID/Info : Picture based subtitle format used on BDs/HD-DVDs
Duration : 3 h 1 min
Bit rate : 26.9 kb/s
Count of elements : 3106
Stream size : 34.9 MiB (0%)
Title : English-PGS
Language : English
Default : No
Forced : No

Menu
00:00:00.000 : en:Chapter 01
00:11:19.136 : en:Chapter 02
00:20:51.708 : en:Chapter 03
00:35:03.726 : en:Chapter 04
00:47:33.225 : en:Chapter 05
00:58:23.124 : en:Chapter 06
01:11:14.061 : en:Chapter 07
01:24:26.603 : en:Chapter 08
01:35:05.157 : en:Chapter 09
01:42:30.853 : en:Chapter 10
02:00:02.320 : en:Chapter 11
02:10:00.793 : en:Chapter 12
02:20:50.859 : en:Chapter 13
02:34:51.573 : en:Chapter 14
02:46:28.061 : en:Chapter 15
02:59:03.441 : en:Chapter 16


无主之作

Werk ohne Autor
尊敬的游客,如果您要查看本帖隐藏内容请 登录论坛  如果您还没有账号,请 注册账号
沙发: Frank96
昵称:Frank96
经验
789
金币
196
积分
388
TA的心情:
开心
发表于:昨天 19:41
签到天数:55 天
签到等级:【Lv.4】
等级称号:回眸瞭望
  发表于:2020-10-18 07:56
感谢楼主分享
板凳: danielc
昵称:danielc
经验
152
金币
66
积分
78
TA的心情:
难过
发表于:昨天 06:35
签到天数:8 天
签到等级:【Lv.2】
等级称号:顺风飘过
  发表于:2020-10-18 07:58
感谢楼主分享
快速回帖
  尊敬的游客,你当前还没登录站点,立即登录,快速回复此帖!